Thanksgiving 2023 MULTi COMPLETE BLURAY – MONUMENT

Nachdem ein Aufstand am Black Friday in einer Tragödie endet, terrorisiert ein mysteriöser, von Thanksgiving inspirierter Mörder Plymouth, Massachusetts – den Geburtsort des berüchtigten Feiertags.
Thanksgiving
Genre: Horror
IMDB Infos: Thanksgiving
Ton: Englisch/Italienisch (DTS-HD MA 5.1)
Untertitel: Italienisch
Video: BluRay (MPEG-4 H.264 / AVC)
Partgröße: max. 1020 MB
Parts: 38 Stück
Gesamtgröße: 37.5 GB
NFO
Thanksgiving.2023.MULTi.COMPLETE.BLURAY-MONUMENT

RELEASE DATE …: March 2024
ViDEO ……….: 1920 x 1080
AUDiO ……….: English DTS-HD 5.1
AUDiO ……….: Italian DTS-HD 5.1
AUDiO ……….: English AC-3 2.0 commentary
AUDiO
AUDiO
AUDiO
AUDiO
AUDiO
AUDiO
AUDiO
AUDiO

SUBS ………..: Italian
RUNTiME ……..: 106 minutes
REGION……….: B

GENRE ……….: Horror, Mystery, Thriller
IMDb RATiNG ….: 6,3 / 45.347 votes
LiNK ………..: https://www.imdb.com/title/tt1448754/

nFo-13
2022

Beschreibung
Nachdem ein Aufstand am Black Friday in einer Tragödie endet, terrorisiert ein mysteriöser, von Thanksgiving inspirierter Mörder Plymouth, Massachusetts – den Geburtsort des berüchtigten Feiertags.
Direct Download Links | DDL-Links:

Rightgeous Thieves 2023 COMPLETE BLURAY – ALKALiNE

Der Chef einer Geheimorganisation stellt ein Team zusammen, um von den Nazis im Zweiten Weltkrieg geplünderte Kunstwerke zurückzustehlen.
Rightgeous Thieves
Genre: Crime
IMDB Infos: Rightgeous Thieves
Ton: Englisch (Dolby Digital 5.1)
Untertitel: Niederländisch
Video: BluRay (MPEG-2)
Partgröße: max. 1020 MB
Parts: 18 Stück
Gesamtgröße: 16.9 GB
NFO
MATERiAL SAFETY DATA SHEET

04/01/2024

SECTiON 1 (GENERAL iNFORMATiON)

RELEASE NAME -> Rightgeous.Thieves.2023.COMPLETE.BLURAY-ALKALiNE
REFERENCE -> http://www.imdb.com/title/tt14740118/

SECTiON 2 (SOURCE iNFORMATiON)

REGiON -> B
AUDiO -> English AC-3 5.1
SUBTiTLES -> Dutch

SECTiON 3 (PACKAGED iNFORMATiON)

PACKAGiNG -> 16.77GB across 37 files

SECTiON 4 (ADDiTIONAL iNFORMATiON)

SECTiON 5 (REFERENCES)

ALKALiNE (adjective)
1 -> relating to or containing an alkali; having a pH greater
than 7

Beschreibung
Der Chef einer Geheimorganisation stellt ein Team zusammen, um von den Nazis im Zweiten Weltkrieg geplünderte Kunstwerke zurückzustehlen.
Direct Download Links | DDL-Links:

Elemental 2023 COMPLETE UHD BLURAY – B0MBARDiERS

„Elemental“ von Disney und Pixar – ein origineller Animationsfilm – spielt in Element City, wo Feuer, Wasser, Erde und Luft zusammenleben. Die Geschichte dreht sich rund um Ember, eine taffe, schlagfertige und feurige junge Frau, deren Freundschaft zu einem lustigen, lässigen, coolen Typen namens Wade ihre Überzeugungen über die Welt, in der sie leben, in Frage stellt.
Elemental
Genre: Animation
IMDB Infos: Elemental
Ton: Englisch (Dolby 7.1 TrueHD Atmos)
Untertitel: Englisch/Spanisch/Französisch
Video: Ultra HD Blu-ray (MPEG-H H.265 / HEVC)
Partgröße: max. 1020 MB
Parts: 62 Stück
Gesamtgröße: 60.8 GB
NFO
We bomb you with:

Elemental.2023.COMPLETE.UHD.BLURAY-B0MBARDiERS

URL | https://www.imdb.com/title/tt15789038

Video | HEVC @ 40668 kbps
Audio | English Dolby TrueHD/Atmos 7.1 @ 3889 kbps
| English Dolby Digital Plus 7.1 @ 1024 kbps
| English Dolby Digital 5.1 @ 640 kbps
| English Dolby Digital 2.0 @ 320 kbps
| English Dolby Digital 2.0 @ 320 kbps
Subtitles | English SDH, French, Spanish

Duration | 1 h 41 min
Size | 61865 MB
BD Region | A

Beschreibung
„Elemental“ von Disney und Pixar – ein origineller Animationsfilm – spielt in Element City, wo Feuer, Wasser, Erde und Luft zusammenleben. Die Geschichte dreht sich rund um Ember, eine taffe, schlagfertige und feurige junge Frau, deren Freundschaft zu einem lustigen, lässigen, coolen Typen namens Wade ihre Überzeugungen über die Welt, in der sie leben, in Frage stellt.
Direct Download Links | DDL-Links:

Windcatcher 2024 2160p STAN WEB – DL DDP5 1 Atmos DV HDR H 265 – FLUX

Ein zehnjähriger Aborigine-Junge und seine Freunde versuchen, Tyrannen auf einem Schulkarneval zu besiegen und zu Helden zu werden.
Windcatcher
Genre: Family
IMDB Infos: Windcatcher
Ton: Englisch (Dolby Digital Plus 5.1 (WebHD) with Dolby Atmos)
Untertitel: Englisch
Video: WebUHD (MPEG-H H.265 / HEVC)
Partgröße: max. 1020 MB
Parts: 8 Stück
Gesamtgröße: 7.92 GB
NFO
[img]http://lookpic.com/cdn/i2/s/Windc03282024134122-001.jpg[/img]
[img]http://lookpic.com/cdn/i2/s/Windc03282024134122-002.jpg[/img]
[img]http://lookpic.com/cdn/i2/s/Windc03282024134122-003.jpg[/img]

General
Unique ID : 332391705418325921780821549184079340784
(0xFA105059FCF45D2E5408A721B9DFA4F0)
Complete name : Windcatcher 2024 2160p STAN WEB-DL DDP5 1 Atmos DV HDR H
265-FLUX.mkv
Format : Matroska
Format version : Version 4
File size : 7.93 GiB
Duration : 1 h 19 min
Overall bit rate : 14.3 Mb/s
Frame rate : 25.000 FPS
Writing application : mkvmerge v79.0 (‚Funeral Pyres‘) 64-bit
Writing library : libebml v1.4.4 + libmatroska v1.7.1

Video
ID : 1
Format : HEVC
Format/Info : High Efficiency Video Coding
Format profile : Main 10@L5@High
HDR format : Dolby Vision, Version 1.0, Profile 8.1, dvhe.08.07,
BL+RPU, HDR10 compatible / SMPTE ST 2086, Version HDR10, HDR10 compatible
Codec ID : V_MPEGH/ISO/HEVC
Duration : 1 h 19 min
Bit rate : 13.6 Mb/s
Width : 3 840 pixels
Height : 2 160 pixels
Display aspect ratio : 16:9
Frame rate mode : Constant
Frame rate : 25.000 FPS
Color space : YUV
Chroma subsampling : 4:2:0
Bit depth : 10 bits
Bits/(Pixel*Frame) : 0.065
Stream size : 7.52 GiB (95%)
Language : English
Default : Yes
Forced : No
Color range : Limited
Color primaries : BT.2020
Transfer characteristics : PQ
Matrix coefficients : BT.2020 non-constant
Mastering display color primaries : BT.2020
Mastering display luminance : min: 0.0001 cd/m2, max: 1000 cd/m2
Maximum Content Light Level : 1000 cd/m2
Maximum Frame-Average Light Level : 205 cd/m2

Audio
ID : 2
Format : E-AC-3 JOC
Format/Info : Enhanced AC-3 with Joint Object Coding
Commercial name : Dolby Digital Plus with Dolby Atmos
Codec ID : A_EAC3
Duration : 1 h 19 min
Bit rate mode : Constant
Bit rate : 448 kb/s
Channel(s) : 6 channels
Channel layout : L R C LFE Ls Rs
Sampling rate : 48.0 kHz
Frame rate : 31.250 FPS (1536 SPF)
Compression mode : Lossy
Stream size : 254 MiB (3%)
Language : English
Service kind : Complete Main
Default : Yes
Forced : No
Complexity index : 16
Number of dynamic objects : 15
Bed channel count : 1 channel
Bed channel configuration : LFE

Text #1
ID : 3
Format : UTF-8
Codec ID : S_TEXT/UTF8
Codec ID/Info : UTF-8 Plain Text
Language : English
Default : No
Forced : No

Text #2
ID : 4
Format : UTF-8
Codec ID : S_TEXT/UTF8
Codec ID/Info : UTF-8 Plain Text
Title : SDH
Language : English
Default : No
Forced : No

Menu
01:15:37.000 : en:Credits

Beschreibung
Ein zehnjähriger Aborigine-Junge und seine Freunde versuchen, Tyrannen auf einem Schulkarneval zu besiegen und zu Helden zu werden.
Direct Download Links | DDL-Links:

Windcatcher 2024 1080p STAN WEB – DL DDP5 1 Atmos H 264 – FLUX

Ein zehnjähriger Aborigine-Junge und seine Freunde versuchen, Tyrannen auf einem Schulkarneval zu besiegen und zu Helden zu werden.
Windcatcher
Genre: Family
IMDB Infos: Windcatcher
Ton: Englisch (Dolby Digital Plus 5.1 (WebHD) with Dolby Atmos)
Untertitel: Englisch
Video: WebHD (MPEG-4 H.264 / AVC)
Partgröße: max. 1020 MB
Parts: 4 Stück
Gesamtgröße: 3.34 GB
NFO
[img]http://lookpic.com/cdn/i2/s/Windc03272024184134-001.jpg[/img]
[img]http://lookpic.com/cdn/i2/s/Windc03272024184134-002.jpg[/img]
[img]http://lookpic.com/cdn/i2/s/Windc03272024184134-003.jpg[/img]

General
Unique ID : 219092974901882388792950643181092856679
(0xA4D3C5A8237C315BA172553BBF0FE367)
Complete name : Windcatcher 2024 1080p STAN WEB-DL DDP5 1 Atmos H
264-FLUX.mkv
Format : Matroska
Format version : Version 4
File size : 3.34 GiB
Duration : 1 h 19 min
Overall bit rate : 6 024 kb/s
Frame rate : 25.000 FPS
Writing application : mkvmerge v81.0 (‚Milliontown‘) 64-bit
Writing library : libebml v1.4.4 + libmatroska v1.7.1

Video
ID : 1
Format : AVC
Format/Info : Advanced Video Codec
Format profile : High@L4
Format settings : CABAC / 4 Ref Frames
Format settings, CABAC : Yes
Format settings, Reference frames : 4 frames
Codec ID : V_MPEG4/ISO/AVC
Duration : 1 h 19 min
Bit rate : 5 456 kb/s
Width : 1 920 pixels
Height : 1 080 pixels
Display aspect ratio : 16:9
Frame rate mode : Constant
Frame rate : 25.000 FPS
Color space : YUV
Chroma subsampling : 4:2:0
Bit depth : 8 bits
Scan type : Progressive
Bits/(Pixel*Frame) : 0.105
Stream size : 3.03 GiB (91%)
Language : English
Default : Yes
Forced : No
Color range : Limited
Color primaries : BT.709
Transfer characteristics : BT.709
Matrix coefficients : BT.709

Audio
ID : 2
Format : E-AC-3 JOC
Format/Info : Enhanced AC-3 with Joint Object Coding
Commercial name : Dolby Digital Plus with Dolby Atmos
Codec ID : A_EAC3
Duration : 1 h 19 min
Bit rate mode : Constant
Bit rate : 448 kb/s
Channel(s) : 6 channels
Channel layout : L R C LFE Ls Rs
Sampling rate : 48.0 kHz
Frame rate : 31.250 FPS (1536 SPF)
Compression mode : Lossy
Stream size : 254 MiB (7%)
Language : English
Service kind : Complete Main
Default : Yes
Forced : No
Complexity index : 16
Number of dynamic objects : 15
Bed channel count : 1 channel
Bed channel configuration : LFE

Text #1
ID : 3
Format : UTF-8
Codec ID : S_TEXT/UTF8
Codec ID/Info : UTF-8 Plain Text
Language : English
Default : No
Forced : No

Text #2
ID : 4
Format : UTF-8
Codec ID : S_TEXT/UTF8
Codec ID/Info : UTF-8 Plain Text
Title : SDH
Language : English
Default : No
Forced : No

Menu
01:15:37.000 : en:Credits

Beschreibung
Ein zehnjähriger Aborigine-Junge und seine Freunde versuchen, Tyrannen auf einem Schulkarneval zu besiegen und zu Helden zu werden.
Direct Download Links | DDL-Links:

The Beautiful Game 2024 1080p NF WEB – DL DDP5 1 Atmos H 264 – FLUX

Befürworter der Beendigung der Obdachlosigkeit organisieren ein jährliches Turnier für obdachlose Männer, um an einer Reihe von Fußballspielen teilzunehmen, die als „Homeless World Cup“ bekannt sind.
The Beautiful Game
Genre: Drama
IMDB Infos: The Beautiful Game
Ton: Englisch (Dolby Digital Plus 5.1 (WebHD) with Dolby Atmos)
Untertitel: Englisch/Weitere (siehe NFO)
Video: WebHD (MPEG-4 H.264 / AVC)
Partgröße: max. 1020 MB
Parts: 5 Stück
Gesamtgröße: 4.88 GB
NFO
[img]http://lookpic.com/cdn/i2/s/03292024144349-001.jpg[/img]
[img]http://lookpic.com/cdn/i2/s/03292024144349-002.jpg[/img]
[img]http://lookpic.com/cdn/i2/s/03292024144349-003.jpg[/img]

General
Unique ID : 64880037089285061174468635199573663315
(0x30CF70CC9FD9F8BAE57956711EED1E53)
Complete name :
The.Beautiful.Game.2024.1080p.NF.WEB-DL.DDP5.1.Atmos.H.264-FLUX.mkv
Format : Matroska
Format version : Version 4
File size : 4.89 GiB
Duration : 2 h 5 min
Overall bit rate mode : Variable
Overall bit rate : 5 566 kb/s
Frame rate : 24.000 FPS
Writing application : mkvmerge v79.0 (‚Funeral Pyres‘) 64-bit
Writing library : libebml v1.4.4 + libmatroska v1.7.1

Video
ID : 1
Format : AVC
Format/Info : Advanced Video Codec
Format profile : Main@L4
Format settings : CABAC / 3 Ref Frames
Format settings, CABAC : Yes
Format settings, Reference frames : 3 frames
Codec ID : V_MPEG4/ISO/AVC
Duration : 2 h 5 min
Bit rate mode : Variable
Bit rate : 4 688 kb/s
Nominal bit rate : 5 000 kb/s
Maximum bit rate : 7 500 kb/s
Width : 1 920 pixels
Height : 1 080 pixels
Display aspect ratio : 16:9
Frame rate mode : Constant
Frame rate : 24.000 FPS
Color space : YUV
Chroma subsampling : 4:2:0
Bit depth : 8 bits
Scan type : Progressive
Bits/(Pixel*Frame) : 0.094
Stream size : 4.12 GiB (84%)
Writing library : x264 core 148 r2727 7d026e8
Encoding settings : cabac=1 / ref=3 / deblock=1:0:0 / analyse=0x1:0x111 /
me=umh / subme=10 / psy=1 / psy_rd=1.00:0.00 / mixed_ref=1 / me_range=24 / chroma_me=1 / trellis=2 /
8x8dct=0 / cqm=0 / deadzone=21,11 / fast_pskip=1 / chroma_qp_offset=-2 / threads=6 /
lookahead_threads=1 / sliced_threads=0 / nr=0 / decimate=1 / interlaced=0 / bluray_compat=0 /
stitchable=1 / constrained_intra=0 / bframes=2 / b_pyramid=0 / b_adapt=2 / b_bias=0 / direct=3 /
weightb=1 / open_gop=0 / weightp=2 / keyint=240 / keyint_min=121 / scenecut=0 / intra_refresh=0 /
rc_lookahead=48 / rc=2pass / mbtree=1 / bitrate=5000 / ratetol=1.0 / qcomp=0.50 / qpmin=6 / qpmax=51
/ qpstep=4 / cplxblur=20.0 / qblur=0.5 / vbv_maxrate=7500 / vbv_bufsize=10000 / nal_hrd=vbr /
filler=0 / ip_ratio=1.40 / aq=1:1.00
Language : English
Default : Yes
Forced : No

Audio
ID : 2
Format : E-AC-3 JOC
Format/Info : Enhanced AC-3 with Joint Object Coding
Commercial name : Dolby Digital Plus with Dolby Atmos
Codec ID : A_EAC3
Duration : 2 h 5 min
Bit rate mode : Constant
Bit rate : 768 kb/s
Channel(s) : 6 channels
Channel layout : L R C LFE Ls Rs
Sampling rate : 48.0 kHz
Frame rate : 31.250 FPS (1536 SPF)
Compression mode : Lossy
Stream size : 691 MiB (14%)
Language : English
Service kind : Complete Main
Default : Yes
Forced : No
Complexity index : 16
Number of dynamic objects : 15
Bed channel count : 1 channel
Bed channel configuration : LFE

Text #1
ID : 3
Format : UTF-8
Codec ID : S_TEXT/UTF8
Codec ID/Info : UTF-8 Plain Text
Language : English
Default : Yes
Forced : Yes

Text #2
ID : 4
Format : UTF-8
Codec ID : S_TEXT/UTF8
Codec ID/Info : UTF-8 Plain Text
Language : English
Default : No
Forced : No

Text #3
ID : 5
Format : UTF-8
Codec ID : S_TEXT/UTF8
Codec ID/Info : UTF-8 Plain Text
Title : SDH
Language : English
Default : No
Forced : No

Text #4
ID : 6
Format : UTF-8
Codec ID : S_TEXT/UTF8
Codec ID/Info : UTF-8 Plain Text
Language : Arabic
Default : No
Forced : No

Text #5
ID : 7
Format : UTF-8
Codec ID : S_TEXT/UTF8
Codec ID/Info : UTF-8 Plain Text
Language : Czech
Default : No
Forced : No

Text #6
ID : 8
Format : UTF-8
Codec ID : S_TEXT/UTF8
Codec ID/Info : UTF-8 Plain Text
Language : Danish
Default : No
Forced : No

Text #7
ID : 9
Format : UTF-8
Codec ID : S_TEXT/UTF8
Codec ID/Info : UTF-8 Plain Text
Language : German
Default : No
Forced : No

Text #8
ID : 10
Format : UTF-8
Codec ID : S_TEXT/UTF8
Codec ID/Info : UTF-8 Plain Text
Language : Greek
Default : No
Forced : No

Text #9
ID : 11
Format : UTF-8
Codec ID : S_TEXT/UTF8
Codec ID/Info : UTF-8 Plain Text
Title : Latin American
Language : Spanish (Latin America)
Default : No
Forced : No

Text #10
ID : 12
Format : UTF-8
Codec ID : S_TEXT/UTF8
Codec ID/Info : UTF-8 Plain Text
Language : Spanish (ES)
Default : No
Forced : No

Text #11
ID : 13
Format : UTF-8
Codec ID : S_TEXT/UTF8
Codec ID/Info : UTF-8 Plain Text
Language : Finnish
Default : No
Forced : No

Text #12
ID : 14
Format : UTF-8
Codec ID : S_TEXT/UTF8
Codec ID/Info : UTF-8 Plain Text
Language : Filipino
Default : No
Forced : No

Text #13
ID : 15
Format : UTF-8
Codec ID : S_TEXT/UTF8
Codec ID/Info : UTF-8 Plain Text
Language : French
Default : No
Forced : No

Text #14
ID : 16
Format : UTF-8
Codec ID : S_TEXT/UTF8
Codec ID/Info : UTF-8 Plain Text
Language : Hebrew
Default : No
Forced : No

Text #15
ID : 17
Format : UTF-8
Codec ID : S_TEXT/UTF8
Codec ID/Info : UTF-8 Plain Text
Language : Croatian
Default : No
Forced : No

Text #16
ID : 18
Format : UTF-8
Codec ID : S_TEXT/UTF8
Codec ID/Info : UTF-8 Plain Text
Language : Hungarian
Default : No
Forced : No

Text #17
ID : 19
Format : UTF-8
Codec ID : S_TEXT/UTF8
Codec ID/Info : UTF-8 Plain Text
Language : Indonesian
Default : No
Forced : No

Text #18
ID : 20
Format : UTF-8
Codec ID : S_TEXT/UTF8
Codec ID/Info : UTF-8 Plain Text
Language : Italian
Default : No
Forced : No

Text #19
ID : 21
Format : UTF-8
Codec ID : S_TEXT/UTF8
Codec ID/Info : UTF-8 Plain Text
Language : Japanese
Default : No
Forced : No

Text #20
ID : 22
Format : UTF-8
Codec ID : S_TEXT/UTF8
Codec ID/Info : UTF-8 Plain Text
Language : Korean
Default : No
Forced : No

Text #21
ID : 23
Format : UTF-8
Codec ID : S_TEXT/UTF8
Codec ID/Info : UTF-8 Plain Text
Language : Malay
Default : No
Forced : No

Text #22
ID : 24
Format : UTF-8
Codec ID : S_TEXT/UTF8
Codec ID/Info : UTF-8 Plain Text
Language : Norwegian Bokmal
Default : No
Forced : No

Text #23
ID : 25
Format : UTF-8
Codec ID : S_TEXT/UTF8
Codec ID/Info : UTF-8 Plain Text
Language : Dutch
Default : No
Forced : No

Text #24
ID : 26
Format : UTF-8
Codec ID : S_TEXT/UTF8
Codec ID/Info : UTF-8 Plain Text
Language : Polish
Default : No
Forced : No

Text #25
ID : 27
Format : UTF-8
Codec ID : S_TEXT/UTF8
Codec ID/Info : UTF-8 Plain Text
Title : Brazilian
Language : Portuguese (BR)
Default : No
Forced : No

Text #26
ID : 28
Format : UTF-8
Codec ID : S_TEXT/UTF8
Codec ID/Info : UTF-8 Plain Text
Language : Portuguese (PT)
Default : No
Forced : No

Text #27
ID : 29
Format : UTF-8
Codec ID : S_TEXT/UTF8
Codec ID/Info : UTF-8 Plain Text
Language : Romanian
Default : No
Forced : No

Text #28
ID : 30
Format : UTF-8
Codec ID : S_TEXT/UTF8
Codec ID/Info : UTF-8 Plain Text
Language : Russian
Default : No
Forced : No

Text #29
ID : 31
Format : UTF-8
Codec ID : S_TEXT/UTF8
Codec ID/Info : UTF-8 Plain Text
Language : Swedish
Default : No
Forced : No

Text #30
ID : 32
Format : UTF-8
Codec ID : S_TEXT/UTF8
Codec ID/Info : UTF-8 Plain Text
Language : Thai
Default : No
Forced : No

Text #31
ID : 33
Format : UTF-8
Codec ID : S_TEXT/UTF8
Codec ID/Info : UTF-8 Plain Text
Language : Turkish
Default : No
Forced : No

Text #32
ID : 34
Format : UTF-8
Codec ID : S_TEXT/UTF8
Codec ID/Info : UTF-8 Plain Text
Language : Ukrainian
Default : No
Forced : No

Text #33
ID : 35
Format : UTF-8
Codec ID : S_TEXT/UTF8
Codec ID/Info : UTF-8 Plain Text
Language : Vietnamese
Default : No
Forced : No

Text #34
ID : 36
Format : UTF-8
Codec ID : S_TEXT/UTF8
Codec ID/Info : UTF-8 Plain Text
Title : Simplified
Language : Chinese (Simplified)
Default : No
Forced : No

Text #35
ID : 37
Format : UTF-8
Codec ID : S_TEXT/UTF8
Codec ID/Info : UTF-8 Plain Text
Title : Traditional
Language : Chinese (Traditional)
Default : No
Forced : No

Beschreibung
Befürworter der Beendigung der Obdachlosigkeit organisieren ein jährliches Turnier für obdachlose Männer, um an einer Reihe von Fußballspielen teilzunehmen, die als „Homeless World Cup“ bekannt sind.
Direct Download Links | DDL-Links:

Spaceman 2024 2160p NF WEB – DL DDP5 1 Atmos DV HDR H 265 – FLUX

Ein halbes Jahr nach Beginn seiner Solomission am Rande des Sonnensystems wird einem Astronauten, der über den Zustand seines Lebens auf der Erde besorgt ist, von einer uralten Kreatur geholfen, die er in den Eingeweiden seines Raumschiffs entdeckt.
Spaceman
IMDB Infos: Spaceman
Ton: Englisch (Dolby Digital Plus 5.1 (WebHD) with Dolby Atmos)
Untertitel: Englisch/Deutsch/Weitere (siehe NFO)
Video: WebUHD (MPEG-H H.265 / HEVC)
Partgröße: max. 1020 MB
Parts: 15 Stück
Gesamtgröße: 14.5 GB
NFO
[img]http://lookpic.com/cdn/i2/s/Space03262024163130-001.jpg[/img]
[img]http://lookpic.com/cdn/i2/s/Space03262024163130-002.jpg[/img]
[img]http://lookpic.com/cdn/i2/s/Space03262024163130-003.jpg[/img]

General
Unique ID : 190297363233518581852137658355517859365
(0x8F29F0638B87E863CFF7E76C8CF1A625)
Complete name : Spaceman 2024 2160p NF WEB-DL DDP5 1 Atmos DV HDR H
265-FLUX.mkv
Format : Matroska
Format version : Version 4
File size : 14.6 GiB
Duration : 1 h 48 min
Overall bit rate : 19.2 Mb/s
Frame rate : 24.000 FPS
Writing application : mkvmerge v79.0 (‚Funeral Pyres‘) 64-bit
Writing library : libebml v1.4.4 + libmatroska v1.7.1

Video
ID : 1
Format : HEVC
Format/Info : High Efficiency Video Coding
Format profile : Main 10@L5@Main
HDR format : Dolby Vision, Version 1.0, Profile 8.1, dvhe.08.06,
BL+RPU, HDR10 compatible / SMPTE ST 2086, Version HDR10, HDR10 compatible
Codec ID : V_MPEGH/ISO/HEVC
Duration : 1 h 48 min
Bit rate : 18.0 Mb/s
Width : 3 840 pixels
Height : 2 160 pixels
Display aspect ratio : 16:9
Frame rate mode : Constant
Frame rate : 24.000 FPS
Color space : YUV
Chroma subsampling : 4:2:0 (Type 2)
Bit depth : 10 bits
Bits/(Pixel*Frame) : 0.091
Stream size : 13.7 GiB (94%)
Language : English
Default : Yes
Forced : No
Color range : Limited
Color primaries : BT.2020
Transfer characteristics : PQ
Matrix coefficients : BT.2020 non-constant
Mastering display color primaries : Display P3
Mastering display luminance : min: 0.0001 cd/m2, max: 1000 cd/m2
Maximum Content Light Level : 502 cd/m2
Maximum Frame-Average Light Level : 56 cd/m2

Audio
ID : 2
Format : E-AC-3 JOC
Format/Info : Enhanced AC-3 with Joint Object Coding
Commercial name : Dolby Digital Plus with Dolby Atmos
Codec ID : A_EAC3
Duration : 1 h 48 min
Bit rate mode : Constant
Bit rate : 768 kb/s
Channel(s) : 6 channels
Channel layout : L R C LFE Ls Rs
Sampling rate : 48.0 kHz
Frame rate : 31.250 FPS (1536 SPF)
Compression mode : Lossy
Stream size : 598 MiB (4%)
Language : English
Service kind : Complete Main
Default : Yes
Forced : No
Complexity index : 16
Number of dynamic objects : 15
Bed channel count : 1 channel
Bed channel configuration : LFE

Text #1
ID : 3
Format : UTF-8
Codec ID : S_TEXT/UTF8
Codec ID/Info : UTF-8 Plain Text
Language : English
Default : Yes
Forced : Yes

Text #2
ID : 4
Format : UTF-8
Codec ID : S_TEXT/UTF8
Codec ID/Info : UTF-8 Plain Text
Language : English
Default : No
Forced : No

Text #3
ID : 5
Format : UTF-8
Codec ID : S_TEXT/UTF8
Codec ID/Info : UTF-8 Plain Text
Title : SDH
Language : English
Default : No
Forced : No

Text #4
ID : 6
Format : UTF-8
Codec ID : S_TEXT/UTF8
Codec ID/Info : UTF-8 Plain Text
Language : Arabic
Default : No
Forced : No

Text #5
ID : 7
Format : UTF-8
Codec ID : S_TEXT/UTF8
Codec ID/Info : UTF-8 Plain Text
Language : Catalan
Default : No
Forced : No

Text #6
ID : 8
Format : UTF-8
Codec ID : S_TEXT/UTF8
Codec ID/Info : UTF-8 Plain Text
Language : Czech
Default : No
Forced : No

Text #7
ID : 9
Format : UTF-8
Codec ID : S_TEXT/UTF8
Codec ID/Info : UTF-8 Plain Text
Language : Danish
Default : No
Forced : No

Text #8
ID : 10
Format : UTF-8
Codec ID : S_TEXT/UTF8
Codec ID/Info : UTF-8 Plain Text
Language : German
Default : No
Forced : No

Text #9
ID : 11
Format : UTF-8
Codec ID : S_TEXT/UTF8
Codec ID/Info : UTF-8 Plain Text
Language : Greek
Default : No
Forced : No

Text #10
ID : 12
Format : UTF-8
Codec ID : S_TEXT/UTF8
Codec ID/Info : UTF-8 Plain Text
Title : Latin American
Language : Spanish (Latin America)
Default : No
Forced : No

Text #11
ID : 13
Format : UTF-8
Codec ID : S_TEXT/UTF8
Codec ID/Info : UTF-8 Plain Text
Language : Spanish (ES)
Default : No
Forced : No

Text #12
ID : 14
Format : UTF-8
Codec ID : S_TEXT/UTF8
Codec ID/Info : UTF-8 Plain Text
Language : Basque
Default : No
Forced : No

Text #13
ID : 15
Format : UTF-8
Codec ID : S_TEXT/UTF8
Codec ID/Info : UTF-8 Plain Text
Language : Finnish
Default : No
Forced : No

Text #14
ID : 16
Format : UTF-8
Codec ID : S_TEXT/UTF8
Codec ID/Info : UTF-8 Plain Text
Language : Filipino
Default : No
Forced : No

Text #15
ID : 17
Format : UTF-8
Codec ID : S_TEXT/UTF8
Codec ID/Info : UTF-8 Plain Text
Language : French
Default : No
Forced : No

Text #16
ID : 18
Format : UTF-8
Codec ID : S_TEXT/UTF8
Codec ID/Info : UTF-8 Plain Text
Language : Galician
Default : No
Forced : No

Text #17
ID : 19
Format : UTF-8
Codec ID : S_TEXT/UTF8
Codec ID/Info : UTF-8 Plain Text
Language : Hebrew
Default : No
Forced : No

Text #18
ID : 20
Format : UTF-8
Codec ID : S_TEXT/UTF8
Codec ID/Info : UTF-8 Plain Text
Language : Croatian
Default : No
Forced : No

Text #19
ID : 21
Format : UTF-8
Codec ID : S_TEXT/UTF8
Codec ID/Info : UTF-8 Plain Text
Language : Hungarian
Default : No
Forced : No

Text #20
ID : 22
Format : UTF-8
Codec ID : S_TEXT/UTF8
Codec ID/Info : UTF-8 Plain Text
Language : Indonesian
Default : No
Forced : No

Text #21
ID : 23
Format : UTF-8
Codec ID : S_TEXT/UTF8
Codec ID/Info : UTF-8 Plain Text
Language : Italian
Default : No
Forced : No

Text #22
ID : 24
Format : UTF-8
Codec ID : S_TEXT/UTF8
Codec ID/Info : UTF-8 Plain Text
Language : Japanese
Default : No
Forced : No

Text #23
ID : 25
Format : UTF-8
Codec ID : S_TEXT/UTF8
Codec ID/Info : UTF-8 Plain Text
Language : Korean
Default : No
Forced : No

Text #24
ID : 26
Format : UTF-8
Codec ID : S_TEXT/UTF8
Codec ID/Info : UTF-8 Plain Text
Language : Malay
Default : No
Forced : No

Text #25
ID : 27
Format : UTF-8
Codec ID : S_TEXT/UTF8
Codec ID/Info : UTF-8 Plain Text
Language : Norwegian Bokmal
Default : No
Forced : No

Text #26
ID : 28
Format : UTF-8
Codec ID : S_TEXT/UTF8
Codec ID/Info : UTF-8 Plain Text
Language : Dutch
Default : No
Forced : No

Text #27
ID : 29
Format : UTF-8
Codec ID : S_TEXT/UTF8
Codec ID/Info : UTF-8 Plain Text
Language : Polish
Default : No
Forced : No

Text #28
ID : 30
Format : UTF-8
Codec ID : S_TEXT/UTF8
Codec ID/Info : UTF-8 Plain Text
Title : Brazilian
Language : Portuguese (BR)
Default : No
Forced : No

Text #29
ID : 31
Format : UTF-8
Codec ID : S_TEXT/UTF8
Codec ID/Info : UTF-8 Plain Text
Language : Portuguese (PT)
Default : No
Forced : No

Text #30
ID : 32
Format : UTF-8
Codec ID : S_TEXT/UTF8
Codec ID/Info : UTF-8 Plain Text
Language : Romanian
Default : No
Forced : No

Text #31
ID : 33
Format : UTF-8
Codec ID : S_TEXT/UTF8
Codec ID/Info : UTF-8 Plain Text
Language : Russian
Default : No
Forced : No

Text #32
ID : 34
Format : UTF-8
Codec ID : S_TEXT/UTF8
Codec ID/Info : UTF-8 Plain Text
Language : Swedish
Default : No
Forced : No

Text #33
ID : 35
Format : UTF-8
Codec ID : S_TEXT/UTF8
Codec ID/Info : UTF-8 Plain Text
Language : Thai
Default : No
Forced : No

Text #34
ID : 36
Format : UTF-8
Codec ID : S_TEXT/UTF8
Codec ID/Info : UTF-8 Plain Text
Language : Turkish
Default : No
Forced : No

Text #35
ID : 37
Format : UTF-8
Codec ID : S_TEXT/UTF8
Codec ID/Info : UTF-8 Plain Text
Language : Ukrainian
Default : No
Forced : No

Text #36
ID : 38
Format : UTF-8
Codec ID : S_TEXT/UTF8
Codec ID/Info : UTF-8 Plain Text
Language : Vietnamese
Default : No
Forced : No

Text #37
ID : 39
Format : UTF-8
Codec ID : S_TEXT/UTF8
Codec ID/Info : UTF-8 Plain Text
Title : Simplified
Language : Chinese (Simplified)
Default : No
Forced : No

Text #38
ID : 40
Format : UTF-8
Codec ID : S_TEXT/UTF8
Codec ID/Info : UTF-8 Plain Text
Title : Traditional
Language : Chinese (Traditional)
Default : No
Forced : No

Beschreibung
Ein halbes Jahr nach Beginn seiner Solomission am Rande des Sonnensystems wird einem Astronauten, der über den Zustand seines Lebens auf der Erde besorgt ist, von einer uralten Kreatur geholfen, die er in den Eingeweiden seines Raumschiffs entdeckt.
Direct Download Links | DDL-Links:

Spaceman 2024 1080p NF WEB – DL DDP5 1 Atmos H 264 – FLUX

Ein halbes Jahr nach Beginn seiner Solomission am Rande des Sonnensystems wird einem Astronauten, der über den Zustand seines Lebens auf der Erde besorgt ist, von einer uralten Kreatur geholfen, die er in den Eingeweiden seines Raumschiffs entdeckt.
Spaceman
IMDB Infos: Spaceman
Ton: Englisch (Dolby Digital Plus 5.1 (WebHD) with Dolby Atmos)
Untertitel: Englisch/Deutsch/Weitere (siehe NFO)
Video: WebHD (MPEG-4 H.264 / AVC)
Partgröße: max. 1020 MB
Parts: 7 Stück
Gesamtgröße: 6.19 GB
NFO
[img]http://lookpic.com/cdn/i2/s/Space03262024163116-001.jpg[/img]
[img]http://lookpic.com/cdn/i2/s/Space03262024163116-002.jpg[/img]
[img]http://lookpic.com/cdn/i2/s/Space03262024163116-003.jpg[/img]

General
Unique ID : 121895790761892713806811686040255463692
(0x5BB4467D7D2A1B661A68CE53670A010C)
Complete name : Spaceman 2024 1080p NF WEB-DL DDP5 1 Atmos H 264-FLUX.mkv
Format : Matroska
Format version : Version 4
File size : 6.20 GiB
Duration : 1 h 48 min
Overall bit rate mode : Variable
Overall bit rate : 8 150 kb/s
Frame rate : 24.000 FPS
Writing application : mkvmerge v79.0 (‚Funeral Pyres‘) 64-bit
Writing library : libebml v1.4.4 + libmatroska v1.7.1

Video
ID : 1
Format : AVC
Format/Info : Advanced Video Codec
Format profile : High@L4
Format settings : CABAC / 4 Ref Frames
Format settings, CABAC : Yes
Format settings, Reference frames : 4 frames
Codec ID : V_MPEG4/ISO/AVC
Duration : 1 h 48 min
Bit rate mode : Variable
Bit rate : 7 220 kb/s
Maximum bit rate : 20.0 Mb/s
Width : 1 920 pixels
Height : 1 080 pixels
Display aspect ratio : 16:9
Frame rate mode : Constant
Frame rate : 24.000 FPS
Color space : YUV
Chroma subsampling : 4:2:0
Bit depth : 8 bits
Scan type : Progressive
Bits/(Pixel*Frame) : 0.145
Stream size : 5.49 GiB (89%)
Writing library : x264 core 148 r2727 7d026e8
Encoding settings : cabac=1 / ref=4 / deblock=1:0:0 / analyse=0x3:0x111 /
me=umh / subme=10 / psy=1 / psy_rd=1.00:0.00 / mixed_ref=1 / me_range=120 / chroma_me=1 / trellis=2
/ 8x8dct=1 / cqm=0 / deadzone=21,11 / fast_pskip=1 / chroma_qp_offset=-2 / threads=6 /
lookahead_threads=1 / sliced_threads=0 / nr=0 / decimate=1 / interlaced=0 / bluray_compat=0 /
stitchable=1 / constrained_intra=0 / bframes=16 / b_pyramid=2 / b_adapt=2 / b_bias=0 / direct=3 /
weightb=1 / open_gop=0 / weightp=2 / keyint=240 / keyint_min=121 / scenecut=0 / intra_refresh=0 /
rc_lookahead=240 / rc=crf / mbtree=1 / crf=16.0 / qcomp=0.50 / qpmin=6 / qpmax=51 / qpstep=4 /
vbv_maxrate=20000 / vbv_bufsize=25000 / crf_max=0.0 / nal_hrd=vbr / filler=0 / ip_ratio=1.40 /
aq=1:0.80
Language : English
Default : Yes
Forced : No

Audio
ID : 2
Format : E-AC-3 JOC
Format/Info : Enhanced AC-3 with Joint Object Coding
Commercial name : Dolby Digital Plus with Dolby Atmos
Codec ID : A_EAC3
Duration : 1 h 48 min
Bit rate mode : Constant
Bit rate : 768 kb/s
Channel(s) : 6 channels
Channel layout : L R C LFE Ls Rs
Sampling rate : 48.0 kHz
Frame rate : 31.250 FPS (1536 SPF)
Compression mode : Lossy
Stream size : 598 MiB (9%)
Language : English
Service kind : Complete Main
Default : Yes
Forced : No
Complexity index : 16
Number of dynamic objects : 15
Bed channel count : 1 channel
Bed channel configuration : LFE

Text #1
ID : 3
Format : UTF-8
Codec ID : S_TEXT/UTF8
Codec ID/Info : UTF-8 Plain Text
Language : English
Default : Yes
Forced : Yes

Text #2
ID : 4
Format : UTF-8
Codec ID : S_TEXT/UTF8
Codec ID/Info : UTF-8 Plain Text
Language : English
Default : No
Forced : No

Text #3
ID : 5
Format : UTF-8
Codec ID : S_TEXT/UTF8
Codec ID/Info : UTF-8 Plain Text
Title : SDH
Language : English
Default : No
Forced : No

Text #4
ID : 6
Format : UTF-8
Codec ID : S_TEXT/UTF8
Codec ID/Info : UTF-8 Plain Text
Language : Arabic
Default : No
Forced : No

Text #5
ID : 7
Format : UTF-8
Codec ID : S_TEXT/UTF8
Codec ID/Info : UTF-8 Plain Text
Language : Catalan
Default : No
Forced : No

Text #6
ID : 8
Format : UTF-8
Codec ID : S_TEXT/UTF8
Codec ID/Info : UTF-8 Plain Text
Language : Czech
Default : No
Forced : No

Text #7
ID : 9
Format : UTF-8
Codec ID : S_TEXT/UTF8
Codec ID/Info : UTF-8 Plain Text
Language : Danish
Default : No
Forced : No

Text #8
ID : 10
Format : UTF-8
Codec ID : S_TEXT/UTF8
Codec ID/Info : UTF-8 Plain Text
Language : German
Default : No
Forced : No

Text #9
ID : 11
Format : UTF-8
Codec ID : S_TEXT/UTF8
Codec ID/Info : UTF-8 Plain Text
Language : Greek
Default : No
Forced : No

Text #10
ID : 12
Format : UTF-8
Codec ID : S_TEXT/UTF8
Codec ID/Info : UTF-8 Plain Text
Title : Latin American
Language : Spanish (Latin America)
Default : No
Forced : No

Text #11
ID : 13
Format : UTF-8
Codec ID : S_TEXT/UTF8
Codec ID/Info : UTF-8 Plain Text
Language : Spanish (ES)
Default : No
Forced : No

Text #12
ID : 14
Format : UTF-8
Codec ID : S_TEXT/UTF8
Codec ID/Info : UTF-8 Plain Text
Language : Basque
Default : No
Forced : No

Text #13
ID : 15
Format : UTF-8
Codec ID : S_TEXT/UTF8
Codec ID/Info : UTF-8 Plain Text
Language : Finnish
Default : No
Forced : No

Text #14
ID : 16
Format : UTF-8
Codec ID : S_TEXT/UTF8
Codec ID/Info : UTF-8 Plain Text
Language : Filipino
Default : No
Forced : No

Text #15
ID : 17
Format : UTF-8
Codec ID : S_TEXT/UTF8
Codec ID/Info : UTF-8 Plain Text
Language : French
Default : No
Forced : No

Text #16
ID : 18
Format : UTF-8
Codec ID : S_TEXT/UTF8
Codec ID/Info : UTF-8 Plain Text
Language : Galician
Default : No
Forced : No

Text #17
ID : 19
Format : UTF-8
Codec ID : S_TEXT/UTF8
Codec ID/Info : UTF-8 Plain Text
Language : Hebrew
Default : No
Forced : No

Text #18
ID : 20
Format : UTF-8
Codec ID : S_TEXT/UTF8
Codec ID/Info : UTF-8 Plain Text
Language : Croatian
Default : No
Forced : No

Text #19
ID : 21
Format : UTF-8
Codec ID : S_TEXT/UTF8
Codec ID/Info : UTF-8 Plain Text
Language : Hungarian
Default : No
Forced : No

Text #20
ID : 22
Format : UTF-8
Codec ID : S_TEXT/UTF8
Codec ID/Info : UTF-8 Plain Text
Language : Indonesian
Default : No
Forced : No

Text #21
ID : 23
Format : UTF-8
Codec ID : S_TEXT/UTF8
Codec ID/Info : UTF-8 Plain Text
Language : Italian
Default : No
Forced : No

Text #22
ID : 24
Format : UTF-8
Codec ID : S_TEXT/UTF8
Codec ID/Info : UTF-8 Plain Text
Language : Japanese
Default : No
Forced : No

Text #23
ID : 25
Format : UTF-8
Codec ID : S_TEXT/UTF8
Codec ID/Info : UTF-8 Plain Text
Language : Korean
Default : No
Forced : No

Text #24
ID : 26
Format : UTF-8
Codec ID : S_TEXT/UTF8
Codec ID/Info : UTF-8 Plain Text
Language : Malay
Default : No
Forced : No

Text #25
ID : 27
Format : UTF-8
Codec ID : S_TEXT/UTF8
Codec ID/Info : UTF-8 Plain Text
Language : Norwegian Bokmal
Default : No
Forced : No

Text #26
ID : 28
Format : UTF-8
Codec ID : S_TEXT/UTF8
Codec ID/Info : UTF-8 Plain Text
Language : Dutch
Default : No
Forced : No

Text #27
ID : 29
Format : UTF-8
Codec ID : S_TEXT/UTF8
Codec ID/Info : UTF-8 Plain Text
Language : Polish
Default : No
Forced : No

Text #28
ID : 30
Format : UTF-8
Codec ID : S_TEXT/UTF8
Codec ID/Info : UTF-8 Plain Text
Title : Brazilian
Language : Portuguese (BR)
Default : No
Forced : No

Text #29
ID : 31
Format : UTF-8
Codec ID : S_TEXT/UTF8
Codec ID/Info : UTF-8 Plain Text
Language : Portuguese (PT)
Default : No
Forced : No

Text #30
ID : 32
Format : UTF-8
Codec ID : S_TEXT/UTF8
Codec ID/Info : UTF-8 Plain Text
Language : Romanian
Default : No
Forced : No

Text #31
ID : 33
Format : UTF-8
Codec ID : S_TEXT/UTF8
Codec ID/Info : UTF-8 Plain Text
Language : Russian
Default : No
Forced : No

Text #32
ID : 34
Format : UTF-8
Codec ID : S_TEXT/UTF8
Codec ID/Info : UTF-8 Plain Text
Language : Swedish
Default : No
Forced : No

Text #33
ID : 35
Format : UTF-8
Codec ID : S_TEXT/UTF8
Codec ID/Info : UTF-8 Plain Text
Language : Thai
Default : No
Forced : No

Text #34
ID : 36
Format : UTF-8
Codec ID : S_TEXT/UTF8
Codec ID/Info : UTF-8 Plain Text
Language : Turkish
Default : No
Forced : No

Text #35
ID : 37
Format : UTF-8
Codec ID : S_TEXT/UTF8
Codec ID/Info : UTF-8 Plain Text
Language : Ukrainian
Default : No
Forced : No

Text #36
ID : 38
Format : UTF-8
Codec ID : S_TEXT/UTF8
Codec ID/Info : UTF-8 Plain Text
Language : Vietnamese
Default : No
Forced : No

Text #37
ID : 39
Format : UTF-8
Codec ID : S_TEXT/UTF8
Codec ID/Info : UTF-8 Plain Text
Title : Simplified
Language : Chinese (Simplified)
Default : No
Forced : No

Text #38
ID : 40
Format : UTF-8
Codec ID : S_TEXT/UTF8
Codec ID/Info : UTF-8 Plain Text
Title : Traditional
Language : Chinese (Traditional)
Default : No
Forced : No

Beschreibung
Ein halbes Jahr nach Beginn seiner Solomission am Rande des Sonnensystems wird einem Astronauten, der über den Zustand seines Lebens auf der Erde besorgt ist, von einer uralten Kreatur geholfen, die er in den Eingeweiden seines Raumschiffs entdeckt.
Direct Download Links | DDL-Links:

Ordinary Angels 2024 2160p WEB – DL DDP5 1 DV HDR H 265 – FLUX

Inspiriert von der unglaublichen wahren Geschichte eines Friseurs, der im Alleingang eine ganze Gemeinde um sich versammelt, um einem verwitweten Vater zu helfen, das Leben seiner schwerkranken kleinen Tochter zu retten.
Ordinary Angels
Genre: Drama
IMDB Infos: Ordinary Angels
Ton: Englisch (Dolby Digital Plus 5.1 (WebHD))
Untertitel: Englisch/Französisch
Video: WebUHD (MPEG-H H.265 / HEVC)
Partgröße: max. 1020 MB
Parts: 21 Stück
Gesamtgröße: 20.7 GB
NFO
[img]http://lookpic.com/cdn/i2/s/Ordin03262024113713-001.jpg[/img]
[img]http://lookpic.com/cdn/i2/s/Ordin03262024113713-002.jpg[/img]
[img]http://lookpic.com/cdn/i2/s/Ordin03262024113713-003.jpg[/img]

General
Unique ID : 58988056030717579593888707015285548917
(0x2C60AFB4712149278894FB24C3022775)
Complete name : Ordinary Angels 2024 2160p WEB-DL DDP5 1 DV HDR H
265-FLUX.mkv
Format : Matroska
Format version : Version 4
File size : 20.8 GiB
Duration : 1 h 57 min
Overall bit rate : 25.2 Mb/s
Frame rate : 23.976 FPS
Writing application : mkvmerge v82.0 (‚I’m The President‘) 64-bit
Writing library : libebml v1.4.5 + libmatroska v1.7.1

Video
ID : 1
Format : HEVC
Format/Info : High Efficiency Video Coding
Format profile : Main 10@L5@High
HDR format : Dolby Vision, Version 1.0, Profile 8.1, dvhe.08.06,
BL+RPU, HDR10 compatible / SMPTE ST 2094 App 4, Version HDR10+ Profile B, HDR10+ Profile B
compatible
Codec ID : V_MPEGH/ISO/HEVC
Duration : 1 h 57 min
Bit rate : 24.1 Mb/s
Width : 3 824 pixels
Height : 1 592 pixels
Display aspect ratio : 2.40:1
Frame rate mode : Constant
Frame rate : 23.976 (23976/1000) FPS
Color space : YUV
Chroma subsampling : 4:2:0 (Type 2)
Bit depth : 10 bits
Bits/(Pixel*Frame) : 0.165
Stream size : 19.8 GiB (95%)
Language : English
Default : Yes
Forced : No
Color range : Limited
Color primaries : BT.2020
Transfer characteristics : PQ
Matrix coefficients : BT.2020 non-constant
Mastering display color primaries : BT.2020
Mastering display luminance : min: 0.0050 cd/m2, max: 1000 cd/m2
Maximum Content Light Level : 602 cd/m2
Maximum Frame-Average Light Level : 161 cd/m2

Audio
ID : 2
Format : E-AC-3
Format/Info : Enhanced AC-3
Commercial name : Dolby Digital Plus
Codec ID : A_EAC3
Duration : 1 h 57 min
Bit rate mode : Constant
Bit rate : 640 kb/s
Channel(s) : 6 channels
Channel layout : L R C LFE Ls Rs
Sampling rate : 48.0 kHz
Frame rate : 31.250 FPS (1536 SPF)
Compression mode : Lossy
Delay relative to video : 12 ms
Stream size : 539 MiB (3%)
Language : English (US)
Service kind : Complete Main
Default : Yes
Forced : No

Text #1
ID : 3
Format : UTF-8
Codec ID : S_TEXT/UTF8
Codec ID/Info : UTF-8 Plain Text
Language : English
Default : No
Forced : No

Text #2
ID : 4
Format : UTF-8
Codec ID : S_TEXT/UTF8
Codec ID/Info : UTF-8 Plain Text
Title : SDH
Language : English
Default : No
Forced : No

Text #3
ID : 5
Format : UTF-8
Codec ID : S_TEXT/UTF8
Codec ID/Info : UTF-8 Plain Text
Language : French (FR)
Default : No
Forced : No

Menu
00:00:00.000 : en:Chapter 01
00:05:40.090 : en:Chapter 02
00:14:59.774 : en:Chapter 03
00:23:26.406 : en:Chapter 04
00:30:48.431 : en:Chapter 05
00:41:28.613 : en:Chapter 06
00:49:35.600 : en:Chapter 07
01:01:43.411 : en:Chapter 08
01:09:47.062 : en:Chapter 09
01:20:18.735 : en:Chapter 10
01:31:13.973 : en:Chapter 11
01:40:40.040 : en:Chapter 12
01:53:28.391 : en:Chapter 13

Beschreibung
Inspiriert von der unglaublichen wahren Geschichte eines Friseurs, der im Alleingang eine ganze Gemeinde um sich versammelt, um einem verwitweten Vater zu helfen, das Leben seiner schwerkranken kleinen Tochter zu retten.
Direct Download Links | DDL-Links:

Ordinary Angels 2024 1080p AMZN WEB – DL DDP5 1 H 264 – FLUX

Inspiriert von der unglaublichen wahren Geschichte eines Friseurs, der im Alleingang eine ganze Gemeinde um sich versammelt, um einem verwitweten Vater zu helfen, das Leben seiner schwerkranken kleinen Tochter zu retten.
Ordinary Angels
Genre: Drama
IMDB Infos: Ordinary Angels
Ton: Englisch (Dolby Digital Plus 5.1 (WebHD))
Untertitel: Englisch/Französisch
Video: WebHD (MPEG-4 H.264 / AVC)
Partgröße: max. 1020 MB
Parts: 9 Stück
Gesamtgröße: 8.20 GB
NFO
[img]http://lookpic.com/cdn/i2/s/Ordin03262024061644-001.jpg[/img]
[img]http://lookpic.com/cdn/i2/s/Ordin03262024061644-002.jpg[/img]
[img]http://lookpic.com/cdn/i2/s/Ordin03262024061644-003.jpg[/img]

General
Unique ID : 96418444831075806062967756477493591816
(0x4889845AB60B9719C918C3CF470EBF08)
Complete name : Ordinary Angels 2024 1080p AMZN WEB-DL DDP5 1 H
264-FLUX.mkv
Format : Matroska
Format version : Version 4
File size : 8.20 GiB
Duration : 1 h 57 min
Overall bit rate : 9 969 kb/s
Frame rate : 23.976 FPS
Writing application : mkvmerge v79.0 (‚Funeral Pyres‘) 64-bit
Writing library : libebml v1.4.4 + libmatroska v1.7.1

Video
ID : 1
Format : AVC
Format/Info : Advanced Video Codec
Format profile : High@L4
Format settings : CABAC / 4 Ref Frames
Format settings, CABAC : Yes
Format settings, Reference frames : 4 frames
Codec ID : V_MPEG4/ISO/AVC
Duration : 1 h 57 min
Bit rate mode : Constant
Bit rate : 9 131 kb/s
Nominal bit rate : 10 000 kb/s
Width : 1 920 pixels
Height : 800 pixels
Display aspect ratio : 2.40:1
Frame rate mode : Constant
Frame rate : 23.976 (24000/1001) FPS
Color space : YUV
Chroma subsampling : 4:2:0
Bit depth : 8 bits
Scan type : Progressive
Bits/(Pixel*Frame) : 0.248
Stream size : 7.51 GiB (92%)
Language : English (US)
Default : Yes
Forced : No
Color range : Limited
Color primaries : BT.709
Transfer characteristics : BT.709
Matrix coefficients : BT.709

Audio
ID : 2
Format : E-AC-3
Format/Info : Enhanced AC-3
Commercial name : Dolby Digital Plus
Codec ID : A_EAC3
Duration : 1 h 57 min
Bit rate mode : Constant
Bit rate : 640 kb/s
Channel(s) : 6 channels
Channel layout : L R C LFE Ls Rs
Sampling rate : 48.0 kHz
Frame rate : 31.250 FPS (1536 SPF)
Compression mode : Lossy
Stream size : 539 MiB (6%)
Language : English (US)
Service kind : Complete Main
Default : Yes
Forced : No

Text #1
ID : 3
Format : UTF-8
Codec ID : S_TEXT/UTF8
Codec ID/Info : UTF-8 Plain Text
Language : English (US)
Default : No
Forced : No

Text #2
ID : 4
Format : UTF-8
Codec ID : S_TEXT/UTF8
Codec ID/Info : UTF-8 Plain Text
Title : SDH
Language : English (US)
Default : No
Forced : No

Text #3
ID : 5
Format : UTF-8
Codec ID : S_TEXT/UTF8
Codec ID/Info : UTF-8 Plain Text
Language : French (FR)
Default : No
Forced : No

Menu
00:00:00.000 : en:Scene 1
01:53:29.000 : en:End Credits

Beschreibung
Inspiriert von der unglaublichen wahren Geschichte eines Friseurs, der im Alleingang eine ganze Gemeinde um sich versammelt, um einem verwitweten Vater zu helfen, das Leben seiner schwerkranken kleinen Tochter zu retten.
Direct Download Links | DDL-Links: